<?xml version="1.0" standalone="no"?>
<!DOCTYPE svg PUBLIC "-//W3C//DTD SVG 1.1//EN" "http://www.w3.org/Graphics/SVG/1.1/DTD/svg11.dtd">
<svg xmlns="http://www.w3.org/2000/svg">
<defs >
<font id="Jost" horiz-adv-x="546" ><font-face
    font-family="Jost"
    units-per-em="1000"
    panose-1="0 0 0 0 0 0 0 0 0 0"
    ascent="1070"
    descent="-375"
    alphabetic="0" />
<glyph unicode=" " horiz-adv-x="300" />
<glyph unicode="!" horiz-adv-x="300" d="M100 700L120 200H180L200 700H100ZM95 40Q95 18 111 2T150 -15Q173 -15 189 1T205 40Q205 63 189 79T150 95Q128 95 112 79T95 40Z" />
<glyph unicode="&quot;" horiz-adv-x="465" d="M130 700L80 400H135L225 700H130ZM310 700L260 400H315L405 700H310Z" />
<glyph unicode="#" horiz-adv-x="605" d="M75 440H210H224H416H430H570V505H75V440ZM35 200H530V265H402H382H182H166H35V200ZM455 700L401 478L397 462L345 246L340 228L285 0H360L530 700H455ZM245 700L75 0H150L205 226L209 244L263 466L267 482L320 700H245Z" />
<glyph unicode="$" horiz-adv-x="580" d="M259 818V668H333V818H259ZM259 48V-112H333V48H259ZM440 514L509 560Q495 596 466 630T393 687T293 710Q236 710 190 688T117 627T90 540Q90 492 107 458T152 401T209 362T266 338Q306 324 343 305T405 257T430 183Q430
148 417 123T377 84T310 70Q267 70 234 89T174 143T127 226L55 183Q77 125 113 82T199 15T305 -10Q375 -10 422 15T493 85T518 190Q518 238 501 272T457 330T399 370T341 396Q299 412 262 429T202 471T179 534Q179 565 191 586T228 618T294 629Q333 629 360 613T406
570T440 514Z" />
<glyph unicode="%" horiz-adv-x="751" d="M35 550Q35 506 54 470T110 412T193 390Q241 390 276 411T331 469T351 550Q351 595 332 631T277 688T193 710Q146 710 110 689T55 631T35 550ZM106 550Q106 576 116 597T146 632T193 645Q221 645 240 632T269 598T280
550Q280 525 270 503T240 468T193 455Q166 455 147 468T117 503T106 550ZM400 150Q400 106 419 70T475 12T558 -10Q606 -10 641 11T696 69T716 150Q716 195 697 231T642 288T558 310Q511 310 475 289T420 231T400 150ZM471 150Q471 176 481 197T511 232T558 245Q586
245 605 232T634 198T645 150Q645 125 635 103T605 68T558 55Q531 55 512 68T482 103T471 150ZM563 700L113 0H188L638 700H563Z" />
<glyph unicode="&amp;" horiz-adv-x="675" d="M223 384L559 0H655L285 425Q255 460 228 491T201 556Q201 594 224 617T288 640Q316 640 335 629T364 599T375 554Q375 520 343 485T254 417Q234 406 206 393T149 361T96 318T56 260T40 183Q40 124 72 81T156 14T265
-10Q332 -10 388 15T492 81T582 173T664 277L602 316Q566 267 528 222T448 142T363 85T270 64Q230 64 197 79T145 122T125 188Q125 226 143 253T189 300T250 337T309 370Q344 391 371 412T417 457T446 505T456 554Q456 596 436 631T379 689T288 711Q238 711 200
692T139 638T117 556Q117 518 136 486T181 429T223 384Z" />
<glyph unicode="&apos;" horiz-adv-x="285" d="M130 700L80 400H135L225 700H130Z" />
<glyph unicode="(" horiz-adv-x="310" d="M205 780Q145 668 118 543T90 290Q90 163 117 38T205 -200H280Q228 -87 204 38T180 290Q180 418 204 543T280 780H205Z" />
<glyph unicode=")" horiz-adv-x="310" d="M105 -200Q165 -87 192 38T220 290Q220 418 193 543T105 780H30Q83 668 106 543T130 290Q130 163 107 38T30 -200H105Z" />
<glyph unicode="*" horiz-adv-x="592" d="M471 599L288 529L304 481L492 532L471 599ZM439 368L316 520L276 490L382 327L439 368ZM210 327L316 490L276 520L153 368L210 327ZM100 532L288 481L304 529L121 599L100 532ZM261 700L271 505H321L331 700H261Z" />
<glyph unicode="+" horiz-adv-x="615" d="M65 215H550V295H65V215ZM265 500V10H350V500H265Z" />
<glyph unicode="," horiz-adv-x="308" d="M148 110L60 -149L118 -170L228 80L148 110Z" />
<glyph unicode="-" horiz-adv-x="210" d="M5 200H205V275H5V200Z" />
<glyph unicode="." horiz-adv-x="300" d="M95 40Q95 18 111 2T150 -15Q173 -15 189 1T205 40Q205 63 189 79T150 95Q128 95 112 79T95 40Z" />
<glyph unicode="/" horiz-adv-x="515" d="M420 700L15 -150H95L500 700H420Z" />
<glyph unicode="0" horiz-adv-x="600" d="M125 350Q125 411 137 462T172 551T227 609T300 630Q341 630 373 610T428 552T463 463T475 350Q475 289 463 238T428 149T373 91T300 70Q260 70 228 90T172 148T137 237T125 350ZM40 350Q40 245 73 164T164 37T300 -10Q377
-10 435 36T527 164T560 350Q560 455 527 536T436 663T300 710Q223 710 165 664T73 536T40 350Z" />
<glyph unicode="1" horiz-adv-x="450" d="M80 562L235 608V0H320V710L80 650V562Z" />
<glyph unicode="2" horiz-adv-x="569" d="M20 0H514V80H195L418 307Q459 349 485 402T511 509Q511 541 498 576T458 641T389 691T289 711Q217 711 166 680T87 592T60 460H145Q145 513 162 551T211 610T289 631Q321 631 346 620T388 591T415 551T424 506Q424 478
416 453T391 403T351 353L20 0Z" />
<glyph unicode="3" d="M253 345Q321 345 372 369T452 434T481 524Q481 574 458 616T391 684T287 710Q230 710 186 687T116 622T90 526H171Q171 572 205 602T288 633Q323 633 346 619T382 580T394 521Q394 496 385 474T357 436T313 410T253 400V345ZM283 -10Q346
-10 395 14T472 82T501 185Q501 237 482 274T428 334T349 369T253 380V325Q287 325 316 317T367 293T401 252T414 195Q414 157 398 129T353 86T283 70Q243 70 212 85T164 126T146 185H60Q60 144 76 109T121 47T191 5T283 -10Z" />
<glyph unicode="4" horiz-adv-x="583" d="M20 140H553V215H410H393H160L358 511V187V176V0H443V700H408L20 140Z" />
<glyph unicode="5" horiz-adv-x="564" d="M524 230Q524 300 497 353T423 436T315 466Q289 466 263 460T211 440L258 625H522V700H192L100 327Q136 352 163 365T218 384T279 390Q324 390 359 370T415 314T436 230Q436 182 418 146T364 90T279 70Q241 70 206 86T145
129T102 186L30 137Q53 97 86 64T167 10T279 -10Q330 -10 374 5T452 50T505 125T524 230Z" />
<glyph unicode="6" horiz-adv-x="576" d="M131 230Q131 278 151 315T207 374T288 395Q333 395 368 374T424 316T445 230Q445 182 425 146T369 88T288 67Q243 67 208 88T152 145T131 230ZM330 700L94 375Q74 347 62 310T50 230Q50 158 81 104T167 20T288 -10Q356
-10 409 20T494 104T526 230Q526 278 510 319T466 392T400 440T319 457Q285 457 259 449T212 416L218 411L437 700H330Z" />
<glyph unicode="7" horiz-adv-x="525" d="M30 620H393L96 0H185L520 700H30V620Z" />
<glyph unicode="8" d="M80 531Q80 490 94 458T133 402T194 367T273 355Q316 355 351 367T412 402T452 457T466 531Q466 581 441 621T372 686T273 710Q218 710 175 686T106 622T80 531ZM161 521Q161 554 175 580T215 620T273 635Q306 635 331 621T370 580T385 521Q385
488 370 463T329 424T273 410Q243 410 218 424T177 463T161 521ZM55 190Q55 149 71 113T117 49T186 6T273 -10Q320 -10 359 5T428 49T474 113T491 190Q491 238 474 275T426 338T356 377T273 390Q230 390 191 377T121 339T73 276T55 190ZM136 200Q136 238 155 268T206
317T273 335Q308 335 339 317T390 269T410 200Q410 157 391 127T340 81T273 65Q238 65 207 81T156 127T136 200Z" />
<glyph unicode="9" horiz-adv-x="576" d="M445 470Q445 422 425 385T369 327T288 305Q243 305 208 326T152 385T131 470Q131 518 151 554T207 612T288 633Q333 633 368 612T424 555T445 470ZM246 0L482 325Q502 353 514 390T526 470Q526 542 495 596T410 680T288
710Q221 710 167 680T82 596T50 470Q50 422 66 381T110 308T176 260T257 243Q291 243 317 251T364 284L358 289L139 0H246Z" />
<glyph unicode=":" horiz-adv-x="300" d="M95 40Q95 18 111 2T150 -15Q173 -15 189 1T205 40Q205 63 189 79T150 95Q128 95 112 79T95 40ZM95 420Q95 398 111 382T150 365Q173 365 189 381T205 420Q205 443 189 459T150 475Q128 475 112 459T95 420Z" />
<glyph unicode=";" horiz-adv-x="330" d="M125 420Q125 398 141 382T180 365Q203 365 219 381T235 420Q235 443 219 459T180 475Q158 475 142 459T125 420ZM148 110L60 -149L118 -170L228 80L148 110Z" />
<glyph unicode="&lt;" horiz-adv-x="640" d="M197 262L575 420V500L65 280V235L575 15V95L197 262Z" />
<glyph unicode="=" horiz-adv-x="615" d="M65 140H550V215H65V140ZM65 290H550V365H65V290Z" />
<glyph unicode="&gt;" horiz-adv-x="640" d="M443 253L65 95V15L575 235V280L65 500V420L443 253Z" />
<glyph unicode="?" horiz-adv-x="557" d="M416 500Q416 462 393 427T327 368T224 345H198L218 170H278L285 290Q341 293 389 321T467 396T497 500Q497 545 481 583T435 649T366 694T279 710Q220 710 180 696T111 655T60 593L125 552Q148 590 183 612T269 635Q314
635 347 619T398 573T416 500ZM195 40Q195 18 211 2T250 -15Q273 -15 289 1T305 40Q305 63 289 79T250 95Q228 95 212 79T195 40Z" />
<glyph unicode="@" horiz-adv-x="770" d="M266 320Q266 363 282 394T325 443T378 460Q403 460 422 449T453 418T465 370Q465 317 446 287T400 243T348 230Q307 230 287 254T266 320ZM190 317Q190 268 209 233T260 179T328 160Q376 160 415 183T477 254T501 370Q501
410 488 446T448 506T378 530Q336 530 293 506T220 434T190 317ZM35 320Q35 221 73 147T184 31T365 -10Q451 -10 503 6T601 50L566 107Q517 76 468 66T365 55Q286 55 228 87T137 179T105 320Q105 389 127 448T189 551T287 620T415 645Q478 645 525 624T603 567T649
486T665 390Q665 327 647 289T605 233T566 216Q550 216 542 222T530 239T527 262Q527 268 527 276T529 289L570 520H495L459 270H466Q461 237 471 210T503 167T556 150Q584 150 615 163T673 204T718 278T735 390Q735 450 715 507T655 610T555 683T415 710Q331 710
262 680T141 597T63 473T35 320Z" />
<glyph unicode="A" horiz-adv-x="660" d="M147 210H517L487 290H177L147 210ZM330 542L450 260L458 240L560 0H655L330 735L5 0H100L204 246L212 264L330 542Z" />
<glyph unicode="B" horiz-adv-x="558" d="M147 370H260Q323 370 369 388T442 441T468 525Q468 585 442 623T370 681T260 700H80V0H270Q338 0 391 22T476 90T508 205Q508 253 490 288T440 345T364 379T270 390H147V343H270Q304 343 332 335T380 309T412 267T423
210Q423 167 404 137T350 91T270 75H165V625H260Q313 625 348 598T383 520Q383 487 367 464T323 429T260 417H147V370Z" />
<glyph unicode="C" horiz-adv-x="685" d="M130 350Q130 432 166 493T262 590T390 625Q440 625 481 612T557 576T615 521V633Q571 672 519 691T390 710Q317 710 254 684T142 609T67 494T40 350Q40 272 67 206T142 92T253 17T390 -10Q467 -10 519 9T615 67V179Q591
148 557 125T482 88T390 75Q321 75 262 110T167 207T130 350Z" />
<glyph unicode="D" horiz-adv-x="680" d="M80 700V0H165V700H80ZM290 0Q392 0 471 44T595 166T640 350Q640 455 595 533T471 656T290 700H127V615H290Q349 615 398 597T482 544T536 460T555 350Q555 289 536 240T482 157T398 104T290 85H127V0H290Z" />
<glyph unicode="E" horiz-adv-x="550" d="M127 0H480V80H127V0ZM127 620H480V700H127V620ZM127 340H460V420H127V340ZM80 700V0H165V700H80Z" />
<glyph unicode="F" horiz-adv-x="500" d="M127 620H440V700H127V620ZM127 340H430V420H127V340ZM80 700V0H165V700H80Z" />
<glyph unicode="G" horiz-adv-x="775" d="M405 275H638Q629 234 610 198T560 134T489 91T395 75Q321 75 261 110T166 207T130 350Q130 432 165 493T261 590T395 625Q475 625 534 594T626 506L686 561Q656 610 613 643T515 693T395 710Q319 710 254 684T141 609T67
494T40 350Q40 272 66 206T141 92T254 17T395 -10Q475 -10 537 19T643 100T708 216T730 355H405V275Z" />
<glyph unicode="H" horiz-adv-x="715" d="M127 340H607V420H127V340ZM550 700V0H635V700H550ZM80 700V0H165V700H80Z" />
<glyph unicode="I" horiz-adv-x="245" d="M80 700V0H165V700H80Z" />
<glyph unicode="J" horiz-adv-x="240" d="M-67 -104L-111 -170Q-103 -180 -86 -191T-44 -211T7 -220Q42 -220 70 -211T119 -181T149 -131T160 -60V700H80V-50Q80 -99 58 -119T12 -140Q-15 -140 -35 -131T-67 -104Z" />
<glyph unicode="K" horiz-adv-x="565" d="M80 700V0H165V700H80ZM440 700L139 370L455 0H560L242 372L545 700H440Z" />
<glyph unicode="L" horiz-adv-x="450" d="M80 700V0H440V80H165V700H80Z" />
<glyph unicode="M" horiz-adv-x="810" d="M177 473L405 65L633 473L685 0H770L685 735L405 228L125 735L40 0H125L177 473Z" />
<glyph unicode="N" horiz-adv-x="775" d="M610 700V179L80 735V0H165V521L695 -35V700H610Z" />
<glyph unicode="O" horiz-adv-x="790" d="M130 350Q130 429 164 491T259 589T395 625Q472 625 531 589T625 491T660 350Q660 271 626 209T532 111T395 75Q319 75 259 111T165 209T130 350ZM40 350Q40 274 66 208T141 94T254 18T395 -10Q472 -10 536 17T649 93T723
208T750 350Q750 427 724 492T649 606T537 682T395 710Q319 710 254 683T141 607T67 493T40 350Z" />
<glyph unicode="P" horiz-adv-x="548" d="M80 700V0H165V700H80ZM127 620H270Q338 620 380 588T423 490Q423 426 381 393T270 360H127V280H270Q338 280 391 305T476 378T508 490Q508 555 477 602T392 674T270 700H127V620Z" />
<glyph unicode="Q" horiz-adv-x="790" d="M130 350Q130 429 164 491T259 589T395 625Q472 625 531 589T625 491T660 350Q660 271 626 209T532 111T395 75Q319 75 259 111T165 209T130 350ZM40 350Q40 274 66 208T141 94T254 18T395 -10Q472 -10 536 17T649 93T723
208T750 350Q750 427 724 492T649 606T537 682T395 710Q319 710 254 683T141 607T67 493T40 350ZM379 300L679 0H789L489 300H379Z" />
<glyph unicode="R" horiz-adv-x="560" d="M205 345L445 0H550L300 345H205ZM80 700V0H165V700H80ZM127 625H270Q315 625 349 609T403 563T423 490Q423 447 404 417T350 371T270 355H127V280H270Q338 280 391 305T476 378T508 490Q508 555 477 602T392 674T270
700H127V625Z" />
<glyph unicode="S" horiz-adv-x="548" d="M106 212L38 166Q61 120 97 80T182 15T288 -10Q330 -10 368 4T437 44T485 107T503 190Q503 238 486 272T443 331T385 372T326 398Q265 419 230 440T179 486T164 540Q164 574 190 601T273 629Q314 629 342 613T391 572T424
521L497 563Q480 600 450 633T378 688T278 710Q219 710 173 687T101 622T75 529Q75 481 93 448T141 393T202 356T260 332Q300 318 335 301T393 255T415 180Q415 132 381 101T291 70Q249 70 216 88T157 138T106 212Z" />
<glyph unicode="T" horiz-adv-x="465" d="M10 620H190V0H275V620H455V700H10V620Z" />
<glyph unicode="U" horiz-adv-x="626" d="M75 700V230Q75 178 91 134T139 58T215 8T313 -10Q367 -10 411 8T486 58T534 134T551 230V700H466V230Q466 158 427 114T313 70Q238 70 199 114T160 230V700H75Z" />
<glyph unicode="V" horiz-adv-x="660" d="M330 158L100 700H5L330 -35L655 700H560L330 158Z" />
<glyph unicode="W" horiz-adv-x="990" d="M703 185L495 735L291 185L105 700H10L285 -35L495 509L705 -35L980 700H885L703 185Z" />
<glyph unicode="X" horiz-adv-x="555" d="M430 700L281 441L135 700H35L238 367L10 0H110L280 293L445 0H545L323 367L530 700H430Z" />
<glyph unicode="Y" horiz-adv-x="561" d="M461 700L280 376L100 700H5L238 301V0H323V302L556 700H461Z" />
<glyph unicode="Z" horiz-adv-x="545" d="M35 620H383L15 0H505V80H157L525 700H35V620Z" />
<glyph unicode="[" horiz-adv-x="300" d="M179 705H280V780H100V-220H280V-145H179V705Z" />
<glyph unicode="\" horiz-adv-x="515" d="M15 700L415 0H500L100 700H15Z" />
<glyph unicode="]" horiz-adv-x="300" d="M121 -145H20V-220H200V780H20V705H121V-145Z" />
<glyph unicode="^" horiz-adv-x="510" d="M255 621L365 460H445L275 710H235L65 460H145L255 621Z" />
<glyph unicode="_" horiz-adv-x="500" d="M0 -133H500V-78H0V-133Z" />
<glyph unicode="`" horiz-adv-x="375" d="M75 660L255 510L300 540L150 700L75 660Z" />
<glyph unicode="a" horiz-adv-x="481" d="M111 142Q111 167 123 185T159 213T223 223Q265 223 302 213T374 178V225Q367 234 347 248T294 274T210 286Q125 286 78 246T30 138Q30 91 52 58T110 8T189 -10Q227 -10 265 4T330 47T357 120L341 180Q341 144 324 117T277
74T210 59Q181 59 159 68T124 97T111 142ZM99 354Q110 362 129 373T175 392T237 400Q258 400 277 396T310 383T333 359T341 319V0H421V330Q421 375 399 406T336 453T241 470Q177 470 132 451T60 413L99 354Z" />
<glyph unicode="b" horiz-adv-x="570" d="M150 780H70V0H150V780ZM535 230Q535 305 504 358T422 441T307 470Q250 470 207 441T139 359T114 230Q114 156 138 102T206 19T307 -10Q370 -10 421 19T504 102T535 230ZM454 230Q454 177 433 140T376 84T297 65Q262 65
228 84T172 140T150 230Q150 283 172 320T228 376T297 395Q340 395 375 376T432 320T454 230Z" />
<glyph unicode="c" horiz-adv-x="478" d="M111 230Q111 278 131 315T187 374T268 395Q305 395 337 384T394 353T428 311V411Q404 439 360 454T268 470Q201 470 147 439T62 354T30 230Q30 161 61 107T147 21T268 -10Q315 -10 359 5T428 49V149Q418 127 394 108T338
77T268 65Q223 65 188 86T132 145T111 230Z" />
<glyph unicode="d" horiz-adv-x="570" d="M420 780V0H500V780H420ZM35 230Q35 156 66 102T149 19T263 -10Q321 -10 364 19T431 102T456 230Q456 305 432 358T364 441T263 470Q201 470 149 441T66 359T35 230ZM116 230Q116 283 137 320T195 376T273 395Q308 395
342 376T398 320T420 230Q420 177 398 140T342 84T273 65Q231 65 195 84T138 140T116 230Z" />
<glyph unicode="e" horiz-adv-x="515" d="M253 -10Q327 -10 381 19T472 107L407 148Q382 106 346 86T263 65Q216 65 183 85T133 143T116 235Q117 288 134 324T184 380T263 400Q302 400 331 383T376 336T393 265Q393 258 390 248T384 232L416 278H86V210H479Q479
212 479 219T480 234Q480 307 454 360T380 441T263 470Q195 470 144 440T64 356T35 230Q35 159 62 105T139 21T253 -10Z" />
<glyph unicode="f" horiz-adv-x="286" d="M40 460V385H270V460H40ZM262 684L306 750Q299 760 287 769T257 784T218 790Q176 790 147 773T101 720T85 630V0H165V620Q165 653 171 673T187 701T213 710Q225 710 238 706T262 684Z" />
<glyph unicode="g" horiz-adv-x="570" d="M44 -30Q44 -89 73 -134T153 -205T272 -230Q330 -230 382 -203T467 -123T500 10V460H420V10Q420 -48 398 -84T341 -138T272 -155Q227 -155 194 -138T143 -92T125 -30H44ZM35 230Q35 156 66 102T149 19T263 -10Q321 -10
364 19T431 102T456 230Q456 305 432 358T364 441T263 470Q201 470 149 441T66 359T35 230ZM116 230Q116 283 137 320T195 376T273 395Q299 395 325 384T372 352T407 301T420 230Q420 177 398 140T342 84T273 65Q231 65 195 84T138 140T116 230Z" />
<glyph unicode="h" horiz-adv-x="525" d="M155 780H75V0H155V780ZM370 280V0H450V290Q450 350 431 390T376 450T292 470Q244 470 208 445T150 378T129 280H155Q155 313 169 339T210 380T272 395Q321 395 345 366T370 280Z" />
<glyph unicode="i" horiz-adv-x="260" d="M75 650Q75 628 91 612T130 595Q153 595 169 611T185 650Q185 673 169 689T130 705Q108 705 92 689T75 650ZM90 460V0H170V460H90Z" />
<glyph unicode="j" horiz-adv-x="250" d="M62 650Q62 628 78 612T116 596Q139 596 154 612T170 650Q170 673 155 688T116 704Q94 704 78 689T62 650ZM-17 -114L-61 -180Q-51 -193 -38 -202T-9 -215T27 -220Q69 -220 99 -201T144 -146T160 -60V460H80V-50Q80 -82
75 -102T60 -131T32 -140Q16 -140 4 -133T-17 -114Z" />
<glyph unicode="k" horiz-adv-x="440" d="M70 780V0H150V780H70ZM320 460L120 270L340 0H440L220 270L420 460H320Z" />
<glyph unicode="l" horiz-adv-x="230" d="M75 780V0H155V780H75Z" />
<glyph unicode="m" horiz-adv-x="780" d="M705 290Q705 347 688 387T637 449T557 470Q511 470 475 449T415 384Q399 425 365 447T282 470Q239 470 208 451T155 393V460H75V0H155V280Q155 316 168 342T205 381T262 395Q307 395 328 367T350 280V0H430V280Q430 316
443 342T480 381T537 395Q582 395 603 367T625 280V0H705V290Z" />
<glyph unicode="n" horiz-adv-x="525" d="M370 280V0H450V290Q450 373 408 421T292 470Q247 470 213 450T155 388V460H75V0H155V280Q155 314 169 340T210 380T272 395Q320 395 345 366T370 280Z" />
<glyph unicode="o" d="M35 230Q35 161 66 107T152 21T273 -10Q341 -10 394 21T479 106T511 230Q511 300 480 354T395 439T273 470Q206 470 152 439T67 354T35 230ZM116 230Q116 278 136 315T192 374T273 395Q318 395 353 374T409 316T430 230Q430 182 410 145T354
87T273 65Q228 65 193 86T137 145T116 230Z" />
<glyph unicode="p" horiz-adv-x="570" d="M150 -220V460H70V-220H150ZM535 230Q535 305 504 358T422 441T307 470Q250 470 207 441T139 359T114 230Q114 156 138 102T206 19T307 -10Q370 -10 421 19T504 102T535 230ZM454 230Q454 177 433 140T376 84T297 65Q262
65 228 84T172 140T150 230Q150 283 172 320T228 376T297 395Q340 395 375 376T432 320T454 230Z" />
<glyph unicode="q" horiz-adv-x="570" d="M420 -220H500V460H420V-220ZM35 230Q35 156 66 102T149 19T263 -10Q321 -10 364 19T431 102T456 230Q456 305 432 358T364 441T263 470Q201 470 149 441T66 359T35 230ZM116 230Q116 283 137 320T195 376T273 395Q308
395 342 376T398 320T420 230Q420 177 398 140T342 84T273 65Q231 65 195 84T138 140T116 230Z" />
<glyph unicode="r" horiz-adv-x="343" d="M155 460H75V0H155V460ZM294 372L338 438Q320 457 299 463T252 470Q220 470 189 445T139 378T119 280H155Q155 313 161 339T185 380T232 395Q252 395 265 390T294 372Z" />
<glyph unicode="s" horiz-adv-x="403" d="M94 141L31 102Q44 75 69 49T132 7T215 -10Q286 -10 329 30T373 130Q373 171 354 197T301 241T228 276Q204 286 182 297T146 322T132 354Q132 377 150 388T193 399Q229 399 257 382T305 339L369 380Q355 406 330 426T273
458T203 470Q166 470 132 457T76 417T54 349Q54 309 74 283T125 240T186 211Q213 201 237 190T276 162T292 121Q292 94 273 79T219 63Q191 63 168 73T126 102T94 141Z" />
<glyph unicode="t" horiz-adv-x="240" d="M5 460V385H235V460H5ZM80 620V0H160V620H80Z" />
<glyph unicode="u" horiz-adv-x="525" d="M155 180V460H75V170Q75 88 118 39T233 -10Q279 -10 313 10T370 72V0H450V460H370V180Q370 146 356 120T315 80T253 65Q205 65 180 95T155 180Z" />
<glyph unicode="v" horiz-adv-x="440" d="M0 460L220 -35L440 460H350L220 135L90 460H0Z" />
<glyph unicode="w" horiz-adv-x="680" d="M5 460L205 -35L336 300L475 -35L675 460H585L469 159L335 495L210 161L95 460H5Z" />
<glyph unicode="x" horiz-adv-x="420" d="M320 460L210 300L100 460H10L167 237L0 0H90L210 174L330 0H420L253 237L410 460H320Z" />
<glyph unicode="y" horiz-adv-x="440" d="M440 460H350L208 104L241 100L95 460H0L176 65L50 -220H140L440 460Z" />
<glyph unicode="z" horiz-adv-x="460" d="M300 385L15 0H425V75H160L445 460H45V385H300Z" />
<glyph unicode="{" horiz-adv-x="311" d="M178 660Q178 680 191 695T226 710H261V780H201Q179 780 155 766T115 721T98 640V430Q98 373 86 351T50 320V260Q73 253 85 230T98 150V-60Q98 -109 114 -140T155 -185T201 -200H261V-130H226Q204 -130 191 -115T178 -80V90Q178
123 176 160T163 228T129 280T65 300V280Q106 280 129 300T162 351T175 420T178 490V660Z" />
<glyph unicode="|" horiz-adv-x="274" d="M100 785V-215H174V785H100Z" />
<glyph unicode="}" horiz-adv-x="311" d="M142 -80Q142 -99 130 -114T94 -130H59V-200H119Q141 -200 165 -186T205 -140T222 -60V150Q222 207 235 230T270 260V320Q248 328 235 350T222 430V640Q222 690 206 720T165 765T119 780H59V710H94Q117 710 129 695T142
660V490Q142 457 144 420T157 352T191 300T255 280V300Q214 300 191 280T158 229T145 160T142 90V-80Z" />
<glyph unicode="~" horiz-adv-x="575" d="M142 176Q140 182 139 187T138 198Q138 224 152 238T193 253Q206 253 220 250T249 239T279 220Q311 196 340 184T394 172Q421 172 445 183T488 219Q501 236 505 255T510 290Q510 298 509 305T506 318L427 323Q430 316
431 309T432 296Q432 272 422 260T390 247Q377 247 359 254T317 279Q296 295 275 305T234 321T194 327Q163 327 136 314T89 275Q76 257 71 239T65 205Q65 192 68 181L142 176Z" />
<glyph unicode="&#xa0;" horiz-adv-x="300" />
<glyph unicode="&#xa1;" horiz-adv-x="300" d="M200 -245L180 255H120L100 -245H200ZM205 415Q205 438 189 454T150 470Q128 470 112 454T95 415Q95 393 111 377T150 360Q173 360 189 376T205 415Z" />
<glyph unicode="&#xa2;" horiz-adv-x="580" d="M280 38V-112H344V38H280ZM162 230Q162 278 182 315T238 374T319 395Q375 395 419 370T479 311V411Q455 439 411 454T319 470Q252 470 198 439T113 354T81 230Q81 161 112 107T198 21T319 -10Q366 -10 410 5T479
49V149Q463 115 419 90T319 65Q274 65 239 86T183 145T162 230ZM280 578V428H344V578H280Z" />
<glyph unicode="&#xa3;" horiz-adv-x="580" d="M67 370V295H427V370H67ZM450 479L521 508Q519 538 506 573T469 639T408 690T321 710Q262 710 216 687T143 621T116 518Q116 477 126 447T151 392T182 345T207 300T217 249Q217 205 199 168T147 91T64 0H517V80H154L152
50Q180 58 206 77T253 124T286 188T298 264Q298 298 289 323T265 369T237 411T213 459T203 520Q203 558 220 581T264 615T321 626Q353 626 377 614T416 580T440 533T450 479Z" />
<glyph unicode="&#xa4;" horiz-adv-x="580" d="M37 503L131 410L180 459L87 553L37 503ZM87 47L180 141L131 190L37 97L87 47ZM449 410L542 503L493 553L399 459L449 410ZM399 141L493 47L542 97L449 190L399 141ZM52 300Q52 231 83 177T169 91T290 60Q358 60
411 91T496 176T528 300Q528 370 497 424T412 509T290 540Q223 540 169 509T84 424T52 300ZM133 300Q133 348 153 385T209 444T290 465Q335 465 370 444T426 386T447 300Q447 252 427 215T371 156T290 135Q245 135 210 156T154 214T133 300Z" />
<glyph unicode="&#xa5;" horiz-adv-x="580" d="M45 290H530V365H45V290ZM45 140H530V215H45V140ZM471 700L290 376L110 700H15L248 303V0H334V306L565 700H471Z" />
<glyph unicode="&#xa6;" horiz-adv-x="274" d="M100 695V455H174V695H100ZM174 245H100V5H174V245Z" />
<glyph unicode="&#xa7;" horiz-adv-x="408" d="M310 579L374 620Q365 646 340 666T280 698T208 710Q171 710 137 696T81 654T59 589Q59 560 70 539T101 503T144 476T191 455Q218 445 241 433T280 405T295 363Q295 343 284 323T254 289T210 275V240Q247 240 278
246T331 268T366 308T378 370Q378 404 360 429T313 474T251 506Q232 514 212 523T176 542T149 564T139 589Q139 605 148 614T173 629T209 634Q228 634 247 628T283 610T310 579ZM96 161L30 123Q37 86 63 56T129 8T210 -10Q247 -10 278 -2T331 23T366 66T378 130Q378
164 360 189T313 234T251 266Q232 274 212 282T176 300T149 327T139 369Q139 390 148 405T178 432T228 454V480Q185 480 154 472T101 448T70 410T59 359Q59 321 79 293T129 247T191 215Q218 205 241 193T280 165T295 123Q295 103 286 90T258 71T215 65Q187 65 162
77T120 111T96 161Z" />
<glyph unicode="&#xa8;" horiz-adv-x="470" d="M280 660Q280 638 296 622T335 605Q358 605 374 621T390 660Q390 683 374 699T335 715Q313 715 297 699T280 660ZM80 660Q80 638 96 622T135 605Q158 605 174 621T190 660Q190 683 174 699T135 715Q113 715 97 699T80 660Z" />
<glyph unicode="&#xa9;" horiz-adv-x="800" d="M239 350Q239 399 259 436T315 494T395 515Q439 515 473 498T530 453V520Q504 543 473 554T395 566Q337 566 290 538T214 462T185 350Q185 288 213 239T289 162T395 134Q441 134 472 145T530 180V247Q508 219 474
202T395 185Q351 185 316 206T260 264T239 350ZM95 350Q95 417 118 473T182 572T279 637T400 660Q465 660 520 637T617 572T682 474T705 350Q705 283 682 227T618 128T521 63T400 40Q335 40 280 63T183 128T118 226T95 350ZM40 350Q40 272 67 206T143 92T258 17T400
-10Q477 -10 542 16T656 91T732 206T760 350Q760 428 733 494T657 608T543 683T400 710Q324 710 258 684T144 609T68 494T40 350Z" />
<glyph unicode="&#xaa;" horiz-adv-x="238" d="M61 532Q61 553 77 568T120 583Q142 583 160 577T194 559V583Q189 589 170 601T118 613Q81 613 51 591T20 532Q20 495 44 475T100 455Q136 455 161 473T186 525L178 550Q178 518 157 505T110 491Q82 491 72 503T61
532ZM61 646Q69 652 87 661T130 670Q149 670 163 661T178 635V460H218V635Q218 668 194 686T130 705Q99 705 77 696T42 677L61 646Z" />
<glyph unicode="&#xab;" horiz-adv-x="510" d="M290 259L440 445L390 490L200 255L390 20L440 65L290 259ZM130 259L280 445L230 490L40 255L230 20L280 65L130 259Z" />
<glyph unicode="&#xac;" horiz-adv-x="620" d="M65 300H480V175H555V375H65V300Z" />
<glyph unicode="&#xad;" horiz-adv-x="210" d="M5 200H205V275H5V200Z" />
<glyph unicode="&#xae;" horiz-adv-x="800" d="M349 357L493 150H556L406 357H349ZM274 570V150H325V570H274ZM302 525H388Q429 525 454 504T480 444Q480 405 455 384T388 363H302V318H388Q449 318 490 352T531 444Q531 502 490 536T388 570H302V525ZM95 350Q95
417 118 473T182 572T279 637T400 660Q465 660 520 637T617 572T682 474T705 350Q705 283 682 227T618 128T521 63T400 40Q335 40 280 63T183 128T118 226T95 350ZM40 350Q40 272 67 206T143 92T258 17T400 -10Q477 -10 542 16T656 91T732 206T760 350Q760 428
733 494T657 608T543 683T400 710Q324 710 258 684T144 609T68 494T40 350Z" />
<glyph unicode="&#xaf;" horiz-adv-x="510" d="M80 600H430V675H80V600Z" />
<glyph unicode="&#xb0;" horiz-adv-x="278" d="M20 600Q20 548 54 514T139 480Q190 480 224 514T258 600Q258 653 224 686T139 720Q88 720 54 687T20 600ZM60 600Q60 636 82 659T139 682Q173 682 195 659T218 600Q218 564 196 541T139 518Q105 518 83 541T60 600Z" />
<glyph unicode="&#xb1;" horiz-adv-x="615" d="M65 0H550V80H65V0ZM65 345H550V425H65V345ZM265 620V150H350V620H265Z" />
<glyph unicode="&#xb2;" horiz-adv-x="346" d="M25 282H321V330H130L263 466Q288 492 303 521T319 582Q319 610 306 639T265 689T191 709Q148 709 116 690T67 637T49 558H100Q100 606 125 633T191 661Q217 661 233 650T258 622T267 586Q267 561 256 539T223 494L25 282Z" />
<glyph unicode="&#xb3;" horiz-adv-x="312" d="M141 487Q182 487 212 501T260 540T278 594Q278 638 247 672T162 706Q110 706 77 676T43 596H92Q92 624 112 642T162 660Q194 660 210 642T226 593Q226 573 216 557T187 530T141 520V487ZM159 274Q215 274 252 306T290
391Q290 433 270 458T216 496T141 508V475Q168 475 190 467T225 441T238 397Q238 363 217 343T159 322Q123 322 100 341T77 391H25Q25 359 41 332T88 290T159 274Z" />
<glyph unicode="&#xb4;" horiz-adv-x="375" d="M300 660L225 700L75 540L120 510L300 660Z" />
<glyph unicode="&#xb5;" horiz-adv-x="525" d="M155 460H75V-320H155V8Q172 -1 191 -5T233 -10Q275 -10 310 9T370 62V0H450V460H370V180Q370 147 356 121T315 80T253 65Q204 65 180 94T155 180V460Z" />
<glyph unicode="&#xb6;" horiz-adv-x="578" d="M288 270V-220H358V635H448V-220H518V700H288Q226 700 174 675T91 603T60 485Q60 416 91 368T174 295T288 270Z" />
<glyph unicode="&#xb7;" horiz-adv-x="300" d="M95 240Q95 218 111 202T150 185Q173 185 189 201T205 240Q205 263 189 279T150 295Q128 295 112 279T95 240Z" />
<glyph unicode="&#xb8;" horiz-adv-x="350" d="M196 60L111 -108Q127 -97 144 -94T168 -90Q194 -90 206 -99T218 -126Q218 -144 206 -155T168 -166Q149 -166 138 -160T112 -142L79 -182Q100 -203 120 -211T168 -220Q196 -220 220 -209T259 -177T275 -126Q275 -101
264 -85T236 -61T202 -52Q200 -52 198 -52T193 -52L257 60H196Z" />
<glyph unicode="&#xb9;" horiz-adv-x="470" d="M152 611L245 639V274H296V700L152 664V611Z" />
<glyph unicode="&#xba;" horiz-adv-x="278" d="M20 580Q20 528 54 494T139 460Q190 460 224 494T258 580Q258 633 224 666T139 700Q88 700 54 667T20 580ZM60 580Q60 616 82 639T139 662Q173 662 195 639T218 580Q218 544 196 521T139 498Q105 498 83 521T60 580Z" />
<glyph unicode="&#xbb;" horiz-adv-x="510" d="M220 251L70 65L120 20L310 255L120 490L70 445L220 251ZM380 251L230 65L280 20L470 255L280 490L230 445L380 251Z" />
<glyph unicode="&#xbc;" horiz-adv-x="754" d="M618 700L98 0H163L683 700H618ZM30 611L123 639V274H174V700L30 664V611ZM398 84H718V129H632H622H440L398 84ZM452 84L601 307V112V106V0H652V420H631L398 84H452Z" />
<glyph unicode="&#xbd;" horiz-adv-x="819" d="M618 700L98 0H163L683 700H618ZM30 611L123 639V274H174V700L30 664V611ZM493 2H789V50H598L731 186Q756 212 771 241T787 302Q787 330 774 359T733 409T659 429Q616 429 584 410T535 357T517 278H568Q568 326 593
353T659 381Q685 381 701 370T726 342T735 306Q735 281 724 259T691 214L493 2Z" />
<glyph unicode="&#xbe;" horiz-adv-x="820" d="M685 700L165 0H230L750 700H685ZM146 487Q187 487 217 501T265 540T283 594Q283 638 252 672T167 706Q115 706 82 676T48 596H97Q97 624 117 642T167 660Q199 660 215 642T231 593Q231 573 221 557T192 530T146
520V487ZM164 274Q220 274 257 306T295 391Q295 433 275 458T221 496T146 508V475Q173 475 195 467T230 441T243 397Q243 363 222 343T164 322Q128 322 105 341T82 391H30Q30 359 46 332T93 290T164 274ZM465 84H785V129H699H689H507L465 84ZM519 84L668 307V112V106V0H719V420H698L465
84H519Z" />
<glyph unicode="&#xbf;" horiz-adv-x="557" d="M141 200Q141 238 164 273T230 332T333 355H359L339 530H279L272 410Q217 407 169 379T90 304T60 200Q60 155 76 117T122 51T191 6T278 -10Q338 -10 378 4T446 45T497 107L432 148Q409 111 374 88T288 65Q243 65
210 81T159 127T141 200ZM362 660Q362 683 346 699T307 715Q285 715 269 699T252 660Q252 638 268 622T307 605Q330 605 346 621T362 660Z" />
<glyph unicode="&#xc0;" horiz-adv-x="660" d="M147 210H517L487 290H177L147 210ZM330 542L450 260L458 240L560 0H655L330 735L5 0H100L204 246L212 264L330 542ZM200 945L380 795L425 825L275 985L200 945Z" />
<glyph unicode="&#xc1;" horiz-adv-x="660" d="M147 210H517L487 290H177L147 210ZM330 542L450 260L458 240L560 0H655L330 735L5 0H100L204 246L212 264L330 542ZM460 945L385 985L235 825L280 795L460 945Z" />
<glyph unicode="&#xc2;" horiz-adv-x="660" d="M147 210H517L487 290H177L147 210ZM330 542L450 260L458 240L560 0H655L330 735L5 0H100L204 246L212 264L330 542ZM330 850L440 755L490 795L330 935L170 795L220 755L330 850Z" />
<glyph unicode="&#xc3;" horiz-adv-x="660" d="M147 210H517L487 290H177L147 210ZM330 542L450 260L458 240L560 0H655L330 735L5 0H100L204 246L212 264L330 542ZM165 812L218 775Q218 783 222 795T237 816T268 826Q291 826 307 815T343 791T389 779Q414 779
435 789T471 817T495 852L449 895Q434 871 421 859T393 847Q373 847 360 854T336 870T309 887T269 894Q247 894 225 884T186 855T165 812Z" />
<glyph unicode="&#xc4;" horiz-adv-x="660" d="M147 210H517L487 290H177L147 210ZM330 542L450 260L458 240L560 0H655L330 735L5 0H100L204 246L212 264L330 542ZM375 850Q375 828 391 812T430 795Q453 795 469 811T485 850Q485 873 469 889T430 905Q408 905
392 889T375 850ZM175 850Q175 828 191 812T230 795Q253 795 269 811T285 850Q285 873 269 889T230 905Q208 905 192 889T175 850Z" />
<glyph unicode="&#xc5;" horiz-adv-x="660" d="M147 210H517L487 290H177L147 210ZM330 542L450 260L458 240L560 0H655L330 735L5 0H100L204 246L212 264L330 542ZM228 798Q228 753 259 726T330 698Q369 698 400 725T432 798Q432 843 401 870T330 898Q291 898
260 871T228 798ZM279 798Q279 823 295 837T330 851Q349 851 365 837T381 798Q381 773 365 759T330 745Q311 745 295 759T279 798Z" />
<glyph unicode="&#xc6;" horiz-adv-x="960" d="M217 210H517V290H217V210ZM435 700L5 0H100L504 660L435 700ZM537 0H890V80H537V0ZM545 620H890V700H435L545 620ZM537 340H870V420H537V340ZM490 700V0H575V700H490Z" />
<glyph unicode="&#xc7;" horiz-adv-x="685" d="M130 350Q130 432 166 493T262 590T390 625Q440 625 481 612T557 576T615 521V633Q571 672 519 691T390 710Q317 710 254 684T142 609T67 494T40 350Q40 272 67 206T142 92T253 17T390 -10Q467 -10 519 9T615 67V179Q591
148 557 125T482 88T390 75Q321 75 262 110T167 207T130 350ZM380 59L294 -109Q310 -98 327 -95T352 -91Q378 -91 390 -100T402 -127Q402 -145 390 -156T352 -167Q333 -167 322 -161T296 -143L262 -183Q283 -204 303 -212T352 -221Q380 -221 404 -210T443 -178T458
-127Q458 -102 447 -86T420 -62T386 -53Q384 -53 382 -53T377 -53L440 59H380Z" />
<glyph unicode="&#xc8;" horiz-adv-x="550" d="M127 0H480V80H127V0ZM127 620H480V700H127V620ZM127 340H460V420H127V340ZM80 700V0H165V700H80ZM150 920L330 770L375 800L225 960L150 920Z" />
<glyph unicode="&#xc9;" horiz-adv-x="550" d="M127 0H480V80H127V0ZM127 620H480V700H127V620ZM127 340H460V420H127V340ZM80 700V0H165V700H80ZM410 920L335 960L185 800L230 770L410 920Z" />
<glyph unicode="&#xca;" horiz-adv-x="550" d="M127 0H480V80H127V0ZM127 620H480V700H127V620ZM127 340H460V420H127V340ZM80 700V0H165V700H80ZM290 865L400 770L450 810L290 950L130 810L180 770L290 865Z" />
<glyph unicode="&#xcb;" horiz-adv-x="550" d="M127 0H480V80H127V0ZM127 620H480V700H127V620ZM127 340H460V420H127V340ZM80 700V0H165V700H80ZM335 845Q335 823 351 807T390 790Q413 790 429 806T445 845Q445 868 429 884T390 900Q368 900 352 884T335 845ZM135
845Q135 823 151 807T190 790Q213 790 229 806T245 845Q245 868 229 884T190 900Q168 900 152 884T135 845Z" />
<glyph unicode="&#xcc;" horiz-adv-x="245" d="M80 700V0H165V700H80ZM-8 920L172 770L218 800L68 960L-8 920Z" />
<glyph unicode="&#xcd;" horiz-adv-x="245" d="M80 700V0H165V700H80ZM252 920L178 960L28 800L72 770L252 920Z" />
<glyph unicode="&#xce;" horiz-adv-x="245" d="M80 700V0H165V700H80ZM122 865L232 770L282 810L122 950L-38 810L12 770L122 865Z" />
<glyph unicode="&#xcf;" horiz-adv-x="245" d="M80 700V0H165V700H80ZM168 825Q168 803 184 787T222 770Q245 770 261 786T278 825Q278 848 262 864T222 880Q200 880 184 864T168 825ZM-32 825Q-32 803 -16 787T22 770Q45 770 61 786T78 825Q78 848 62 864T22
880Q0 880 -16 864T-32 825Z" />
<glyph unicode="&#xd0;" horiz-adv-x="680" d="M5 310H305V385H5V310ZM80 700V0H165V700H80ZM290 0Q392 0 471 44T595 166T640 350Q640 455 595 533T471 656T290 700H127V615H290Q349 615 398 597T482 544T536 460T555 350Q555 289 536 240T482 157T398 104T290
85H127V0H290Z" />
<glyph unicode="&#xd1;" horiz-adv-x="775" d="M610 700V179L80 735V0H165V521L695 -35V700H610ZM215 792L268 755Q268 763 272 775T287 796T318 806Q341 806 357 795T393 771T439 759Q464 759 485 769T521 797T545 832L499 875Q484 851 471 839T443 827Q423 827
410 834T386 850T359 867T319 874Q297 874 275 864T236 835T215 792Z" />
<glyph unicode="&#xd2;" horiz-adv-x="790" d="M130 350Q130 429 164 491T259 589T395 625Q472 625 531 589T625 491T660 350Q660 271 626 209T532 111T395 75Q319 75 259 111T165 209T130 350ZM40 350Q40 274 66 208T141 94T254 18T395 -10Q472 -10 536 17T649
93T723 208T750 350Q750 427 724 492T649 606T537 682T395 710Q319 710 254 683T141 607T67 493T40 350ZM275 920L455 770L500 800L350 960L275 920Z" />
<glyph unicode="&#xd3;" horiz-adv-x="790" d="M130 350Q130 429 164 491T259 589T395 625Q472 625 531 589T625 491T660 350Q660 271 626 209T532 111T395 75Q319 75 259 111T165 209T130 350ZM40 350Q40 274 66 208T141 94T254 18T395 -10Q472 -10 536 17T649
93T723 208T750 350Q750 427 724 492T649 606T537 682T395 710Q319 710 254 683T141 607T67 493T40 350ZM515 920L440 960L290 800L335 770L515 920Z" />
<glyph unicode="&#xd4;" horiz-adv-x="790" d="M130 350Q130 429 164 491T259 589T395 625Q472 625 531 589T625 491T660 350Q660 271 626 209T532 111T395 75Q319 75 259 111T165 209T130 350ZM40 350Q40 274 66 208T141 94T254 18T395 -10Q472 -10 536 17T649
93T723 208T750 350Q750 427 724 492T649 606T537 682T395 710Q319 710 254 683T141 607T67 493T40 350ZM395 865L505 770L555 810L395 950L235 810L285 770L395 865Z" />
<glyph unicode="&#xd5;" horiz-adv-x="790" d="M130 350Q130 429 164 491T259 589T395 625Q472 625 531 589T625 491T660 350Q660 271 626 209T532 111T395 75Q319 75 259 111T165 209T130 350ZM40 350Q40 274 66 208T141 94T254 18T395 -10Q472 -10 536 17T649
93T723 208T750 350Q750 427 724 492T649 606T537 682T395 710Q319 710 254 683T141 607T67 493T40 350ZM230 807L283 770Q283 778 287 790T302 811T333 821Q356 821 372 810T408 786T454 774Q479 774 500 784T536 812T560 847L514 890Q499 866 486 854T458 842Q438
842 425 849T401 865T374 882T334 889Q312 889 290 879T251 850T230 807Z" />
<glyph unicode="&#xd6;" horiz-adv-x="790" d="M130 350Q130 429 164 491T259 589T395 625Q472 625 531 589T625 491T660 350Q660 271 626 209T532 111T395 75Q319 75 259 111T165 209T130 350ZM40 350Q40 274 66 208T141 94T254 18T395 -10Q472 -10 536 17T649
93T723 208T750 350Q750 427 724 492T649 606T537 682T395 710Q319 710 254 683T141 607T67 493T40 350ZM440 825Q440 803 456 787T495 770Q518 770 534 786T550 825Q550 848 534 864T495 880Q473 880 457 864T440 825ZM240 825Q240 803 256 787T295 770Q318 770
334 786T350 825Q350 848 334 864T295 880Q273 880 257 864T240 825Z" />
<glyph unicode="&#xd7;" horiz-adv-x="596" d="M121 22L298 204L475 22L531 78L349 255L531 432L475 488L298 306L121 488L65 432L247 255L65 78L121 22Z" />
<glyph unicode="&#xd8;" horiz-adv-x="790" d="M130 350Q130 429 164 491T259 589T395 625Q472 625 531 589T625 491T660 350Q660 271 626 209T532 111T395 75Q319 75 259 111T165 209T130 350ZM40 350Q40 274 66 208T141 94T254 18T395 -10Q472 -10 536 17T649
93T723 208T750 350Q750 427 724 492T649 606T537 682T395 710Q319 710 254 683T141 607T67 493T40 350ZM688 750L40 -10L98 -50L747 710L688 750Z" />
<glyph unicode="&#xd9;" horiz-adv-x="626" d="M75 700V230Q75 178 91 134T139 58T215 8T313 -10Q367 -10 411 8T486 58T534 134T551 230V700H466V230Q466 158 427 114T313 70Q238 70 199 114T160 230V700H75ZM183 920L363 770L408 800L258 960L183 920Z" />
<glyph unicode="&#xda;" horiz-adv-x="626" d="M75 700V230Q75 178 91 134T139 58T215 8T313 -10Q367 -10 411 8T486 58T534 134T551 230V700H466V230Q466 158 427 114T313 70Q238 70 199 114T160 230V700H75ZM443 920L368 960L218 800L263 770L443 920Z" />
<glyph unicode="&#xdb;" horiz-adv-x="626" d="M75 700V230Q75 178 91 134T139 58T215 8T313 -10Q367 -10 411 8T486 58T534 134T551 230V700H466V230Q466 158 427 114T313 70Q238 70 199 114T160 230V700H75ZM313 865L423 770L473 810L313 950L153 810L203 770L313 865Z" />
<glyph unicode="&#xdc;" horiz-adv-x="626" d="M75 700V230Q75 178 91 134T139 58T215 8T313 -10Q367 -10 411 8T486 58T534 134T551 230V700H466V230Q466 158 427 114T313 70Q238 70 199 114T160 230V700H75ZM358 825Q358 803 374 787T413 770Q436 770 452 786T468
825Q468 848 452 864T413 880Q391 880 375 864T358 825ZM158 825Q158 803 174 787T213 770Q236 770 252 786T268 825Q268 848 252 864T213 880Q191 880 175 864T158 825Z" />
<glyph unicode="&#xdd;" horiz-adv-x="561" d="M410 920L336 960L186 800L230 770L410 920ZM461 700L280 376L100 700H5L238 301V0H323V302L556 700H461Z" />
<glyph unicode="&#xde;" horiz-adv-x="550" d="M80 700V0H165V700H80ZM127 480H270Q315 480 349 466T403 422T423 350Q423 307 404 278T350 235T270 220H127V140H270Q338 140 391 165T476 238T508 350Q508 415 477 462T392 534T270 560H127V480Z" />
<glyph unicode="&#xdf;" horiz-adv-x="565" d="M342 -12Q383 -12 418 3T479 44T521 106T536 182Q536 218 524 243T493 287T453 320T413 346T382 371T370 402Q370 427 381 446T408 484T441 523T469 572T480 642Q480 695 457 728T392 778T296 794Q228 794 178 770T100
704T72 608V-2H153L152 588Q152 635 169 664T215 707T283 721Q313 721 338 713T380 687T396 635Q396 604 385 580T356 536T322 495T294 453T282 402Q282 374 294 353T326 316T367 286T408 256T439 220T452 171Q452 142 439 118T402 79T348 64Q329 64 311 70T276
89T244 116L195 56Q213 36 235 21T284 -3T342 -12Z" />
<glyph unicode="&#xe0;" horiz-adv-x="485" d="M111 135Q111 163 124 183T163 214T230 225Q274 225 309 214T378 178V225Q371 234 352 248T302 274T226 286Q171 286 127 268T56 215T30 125Q30 83 49 53T105 7T188 -10Q236 -10 275 6T337 54T361 130L345 180Q345
137 328 111T279 73T208 61Q176 61 155 69T122 94T111 135ZM111 352Q122 360 141 371T188 391T248 400Q286 400 315 383T345 330V0H425V330Q425 375 403 406T341 453T248 470Q186 470 142 451T72 413L111 352ZM88 680L268 530L313 560L163 720L88 680Z" />
<glyph unicode="&#xe1;" horiz-adv-x="485" d="M111 135Q111 163 124 183T163 214T230 225Q274 225 309 214T378 178V225Q371 234 352 248T302 274T226 286Q171 286 127 268T56 215T30 125Q30 83 49 53T105 7T188 -10Q236 -10 275 6T337 54T361 130L345 180Q345
137 328 111T279 73T208 61Q176 61 155 69T122 94T111 135ZM111 352Q122 360 141 371T188 391T248 400Q286 400 315 383T345 330V0H425V330Q425 375 403 406T341 453T248 470Q186 470 142 451T72 413L111 352ZM408 680L333 720L183 560L228 530L408 680Z" />
<glyph unicode="&#xe2;" horiz-adv-x="485" d="M111 135Q111 163 124 183T163 214T230 225Q274 225 309 214T378 178V225Q371 234 352 248T302 274T226 286Q171 286 127 268T56 215T30 125Q30 83 49 53T105 7T188 -10Q236 -10 275 6T337 54T361 130L345 180Q345
137 328 111T279 73T208 61Q176 61 155 69T122 94T111 135ZM111 352Q122 360 141 371T188 391T248 400Q286 400 315 383T345 330V0H425V330Q425 375 403 406T341 453T248 470Q186 470 142 451T72 413L111 352ZM248 625L358 530L408 570L248 710L88 570L138 530L248
625Z" />
<glyph unicode="&#xe3;" horiz-adv-x="485" d="M111 135Q111 163 124 183T163 214T230 225Q274 225 309 214T378 178V225Q371 234 352 248T302 274T226 286Q171 286 127 268T56 215T30 125Q30 83 49 53T105 7T188 -10Q236 -10 275 6T337 54T361 130L345 180Q345
137 328 111T279 73T208 61Q176 61 155 69T122 94T111 135ZM111 352Q122 360 141 371T188 391T248 400Q286 400 315 383T345 330V0H425V330Q425 375 403 406T341 453T248 470Q186 470 142 451T72 413L111 352ZM83 567L136 530Q136 538 140 550T155 571T186 581Q209
581 225 570T261 546T307 534Q332 534 353 544T389 572T413 607L367 650Q352 626 339 614T311 602Q291 602 278 609T254 625T227 642T187 649Q165 649 143 639T104 610T83 567Z" />
<glyph unicode="&#xe4;" horiz-adv-x="485" d="M111 135Q111 163 124 183T163 214T230 225Q274 225 309 214T378 178V225Q371 234 352 248T302 274T226 286Q171 286 127 268T56 215T30 125Q30 83 49 53T105 7T188 -10Q236 -10 275 6T337 54T361 130L345 180Q345
137 328 111T279 73T208 61Q176 61 155 69T122 94T111 135ZM111 352Q122 360 141 371T188 391T248 400Q286 400 315 383T345 330V0H425V330Q425 375 403 406T341 453T248 470Q186 470 142 451T72 413L111 352ZM293 585Q293 563 309 547T348 530Q371 530 387 546T403
585Q403 608 387 624T348 640Q326 640 310 624T293 585ZM93 585Q93 563 109 547T148 530Q171 530 187 546T203 585Q203 608 187 624T148 640Q126 640 110 624T93 585Z" />
<glyph unicode="&#xe5;" horiz-adv-x="485" d="M111 135Q111 163 124 183T163 214T230 225Q274 225 309 214T378 178V225Q371 234 352 248T302 274T226 286Q171 286 127 268T56 215T30 125Q30 83 49 53T105 7T188 -10Q236 -10 275 6T337 54T361 130L345 180Q345
137 328 111T279 73T208 61Q176 61 155 69T122 94T111 135ZM111 352Q122 360 141 371T188 391T248 400Q286 400 315 383T345 330V0H425V330Q425 375 403 406T341 453T248 470Q186 470 142 451T72 413L111 352ZM146 630Q146 585 177 558T248 530Q287 530 318 557T350
630Q350 675 319 702T248 730Q209 730 178 703T146 630ZM197 630Q197 655 213 669T248 683Q267 683 283 669T299 630Q299 605 283 591T248 577Q229 577 213 591T197 630Z" />
<glyph unicode="&#xe6;" horiz-adv-x="825" d="M208 -10Q283 -10 332 22T390 110H380Q409 47 452 19T563 -10Q634 -10 689 19T782 107L717 148Q692 106 656 86T573 65Q527 65 494 84T444 141T426 229L404 210H788Q789 213 789 219T790 234Q790 304 764 357T691
440T583 470Q542 470 506 457T441 418T394 356H404Q397 412 357 441T248 470Q200 470 155 456T72 413L111 352Q131 367 154 378T201 394T248 400Q295 400 320 374T345 300V230H388Q337 262 302 274T226 286Q168 286 124 266T55 209T30 125Q30 64 78 27T208 -10ZM208
61Q158 61 135 79T111 135Q111 179 141 202T230 225Q265 225 296 217T354 194L345 221L351 116L354 192Q345 125 311 93T208 61ZM426 239Q426 288 444 324T494 380T571 400Q612 400 641 384T687 337T704 266Q704 260 704 257T702 250L726 278H404L426 239Z" />
<glyph unicode="&#xe7;" horiz-adv-x="478" d="M111 230Q111 278 131 315T187 374T268 395Q305 395 337 384T394 353T428 311V411Q404 439 360 454T268 470Q201 470 147 439T62 354T30 230Q30 161 61 107T147 21T268 -10Q315 -10 359 5T428 49V149Q418 127 394
108T338 77T268 65Q223 65 188 86T132 145T111 230ZM258 59L172 -109Q188 -98 205 -95T230 -91Q256 -91 268 -100T280 -127Q280 -145 268 -156T230 -167Q211 -167 200 -161T174 -143L140 -183Q161 -204 181 -212T230 -221Q258 -221 282 -210T321 -178T336 -127Q336
-102 325 -86T298 -62T264 -53Q262 -53 260 -53T255 -53L318 59H258Z" />
<glyph unicode="&#xe8;" horiz-adv-x="515" d="M86 210H479Q480 216 480 222T480 234Q480 307 453 359T377 441T263 470Q204 470 157 446T79 379T39 279Q37 267 36 255T35 230Q35 161 63 107T141 21T253 -10Q313 -10 353 4T421 45T472 107L407 148Q392 123 371
105T324 76T263 65Q218 65 185 84T134 140T116 230L118 260Q118 303 137 334T190 383T263 400Q303 400 330 385T373 342T393 278H86V210ZM123 690L303 540L348 570L198 730L123 690Z" />
<glyph unicode="&#xe9;" horiz-adv-x="515" d="M86 210H479Q480 216 480 222T480 234Q480 307 453 359T377 441T263 470Q204 470 157 446T79 379T39 279Q37 267 36 255T35 230Q35 161 63 107T141 21T253 -10Q313 -10 353 4T421 45T472 107L407 148Q392 123 371
105T324 76T263 65Q218 65 185 84T134 140T116 230L118 260Q118 303 137 334T190 383T263 400Q303 400 330 385T373 342T393 278H86V210ZM423 690L348 730L198 570L243 540L423 690Z" />
<glyph unicode="&#xea;" horiz-adv-x="515" d="M86 210H479Q480 216 480 222T480 234Q480 307 453 359T377 441T263 470Q204 470 157 446T79 379T39 279Q37 267 36 255T35 230Q35 161 63 107T141 21T253 -10Q313 -10 353 4T421 45T472 107L407 148Q392 123 371
105T324 76T263 65Q218 65 185 84T134 140T116 230L118 260Q118 303 137 334T190 383T263 400Q303 400 330 385T373 342T393 278H86V210ZM263 625L373 530L423 570L263 710L103 570L153 530L263 625Z" />
<glyph unicode="&#xeb;" horiz-adv-x="515" d="M86 210H479Q480 216 480 222T480 234Q480 307 453 359T377 441T263 470Q204 470 157 446T79 379T39 279Q37 267 36 255T35 230Q35 161 63 107T141 21T253 -10Q313 -10 353 4T421 45T472 107L407 148Q392 123 371
105T324 76T263 65Q218 65 185 84T134 140T116 230L118 260Q118 303 137 334T190 383T263 400Q303 400 330 385T373 342T393 278H86V210ZM308 585Q308 563 324 547T363 530Q386 530 402 546T418 585Q418 608 402 624T363 640Q341 640 325 624T308 585ZM108 585Q108
563 124 547T163 530Q186 530 202 546T218 585Q218 608 202 624T163 640Q141 640 125 624T108 585Z" />
<glyph unicode="&#xec;" horiz-adv-x="260" d="M90 460V0H170V460H90ZM-30 700L150 550L195 580L45 740L-30 700Z" />
<glyph unicode="&#xed;" horiz-adv-x="260" d="M90 460V0H170V460H90ZM290 700L215 740L65 580L110 550L290 700Z" />
<glyph unicode="&#xee;" horiz-adv-x="260" d="M90 460V0H170V460H90ZM130 635L240 540L290 580L130 720L-30 580L20 540L130 635Z" />
<glyph unicode="&#xef;" horiz-adv-x="260" d="M90 460V0H170V460H90ZM175 615Q175 593 191 577T230 560Q253 560 269 576T285 615Q285 638 269 654T230 670Q208 670 192 654T175 615ZM-25 615Q-25 593 -9 577T30 560Q53 560 69 576T85 615Q85 638 69 654T30 670Q8
670 -8 654T-25 615Z" />
<glyph unicode="&#xf0;" horiz-adv-x="576" d="M288 -10Q358 -10 411 21T495 106T526 230Q526 270 515 312T481 400T421 496T335 604T221 725L173 669Q216 630 251 594T314 524T364 455T403 386H449Q348 457 257 457Q197 457 151 428T77 347T50 230Q50 160 80
106T165 21T288 -10ZM288 67Q242 67 207 88T151 146T131 230Q131 278 151 315T207 373T288 395Q333 395 368 374T424 315T445 230Q445 183 425 146T370 88T288 67ZM184 503L464 610L446 657L166 550L184 503Z" />
<glyph unicode="&#xf1;" horiz-adv-x="525" d="M155 460H75V0H155V460ZM370 280V0H450V290Q450 379 407 424T292 470Q244 470 205 445T143 378T119 280H155Q155 313 169 339T210 380T272 395Q321 395 345 366T370 280ZM98 567L151 530Q151 538 155 550T170 571T201
581Q224 581 240 570T276 546T322 534Q347 534 368 544T404 572T428 607L382 650Q367 626 354 614T326 602Q306 602 293 609T269 625T242 642T202 649Q180 649 158 639T119 610T98 567Z" />
<glyph unicode="&#xf2;" d="M35 230Q35 161 66 107T152 21T273 -10Q341 -10 394 21T479 106T511 230Q511 300 480 354T395 439T273 470Q206 470 152 439T67 354T35 230ZM116 230Q116 278 136 315T192 374T273 395Q318 395 353 374T409 316T430 230Q430 182 410
145T354 87T273 65Q228 65 193 86T137 145T116 230ZM113 700L293 550L338 580L188 740L113 700Z" />
<glyph unicode="&#xf3;" d="M35 230Q35 161 66 107T152 21T273 -10Q341 -10 394 21T479 106T511 230Q511 300 480 354T395 439T273 470Q206 470 152 439T67 354T35 230ZM116 230Q116 278 136 315T192 374T273 395Q318 395 353 374T409 316T430 230Q430 182 410
145T354 87T273 65Q228 65 193 86T137 145T116 230ZM433 700L358 740L208 580L253 550L433 700Z" />
<glyph unicode="&#xf4;" d="M35 230Q35 161 66 107T152 21T273 -10Q341 -10 394 21T479 106T511 230Q511 300 480 354T395 439T273 470Q206 470 152 439T67 354T35 230ZM116 230Q116 278 136 315T192 374T273 395Q318 395 353 374T409 316T430 230Q430 182 410
145T354 87T273 65Q228 65 193 86T137 145T116 230ZM273 645L383 550L433 590L273 730L113 590L163 550L273 645Z" />
<glyph unicode="&#xf5;" d="M35 230Q35 161 66 107T152 21T273 -10Q341 -10 394 21T479 106T511 230Q511 300 480 354T395 439T273 470Q206 470 152 439T67 354T35 230ZM116 230Q116 278 136 315T192 374T273 395Q318 395 353 374T409 316T430 230Q430 182 410
145T354 87T273 65Q228 65 193 86T137 145T116 230ZM108 567L161 530Q161 538 165 550T180 571T211 581Q234 581 250 570T286 546T332 534Q357 534 378 544T414 572T438 607L392 650Q377 626 364 614T336 602Q316 602 303 609T279 625T252 642T212 649Q190 649
168 639T129 610T108 567Z" />
<glyph unicode="&#xf6;" d="M35 230Q35 161 66 107T152 21T273 -10Q341 -10 394 21T479 106T511 230Q511 300 480 354T395 439T273 470Q206 470 152 439T67 354T35 230ZM116 230Q116 278 136 315T192 374T273 395Q318 395 353 374T409 316T430 230Q430 182 410
145T354 87T273 65Q228 65 193 86T137 145T116 230ZM318 615Q318 593 334 577T373 560Q396 560 412 576T428 615Q428 638 412 654T373 670Q351 670 335 654T318 615ZM118 615Q118 593 134 577T173 560Q196 560 212 576T228 615Q228 638 212 654T173 670Q151 670
135 654T118 615Z" />
<glyph unicode="&#xf7;" horiz-adv-x="623" d="M255 450Q255 428 271 412T310 395Q333 395 349 411T365 450Q365 473 349 489T310 505Q288 505 272 489T255 450ZM255 70Q255 48 271 32T310 15Q333 15 349 31T365 70Q365 93 349 109T310 125Q288 125 272 109T255
70ZM60 225H560V305H60V225Z" />
<glyph unicode="&#xf8;" d="M35 230Q35 161 66 107T152 21T273 -10Q341 -10 394 21T479 106T511 230Q511 300 480 354T395 439T273 470Q206 470 152 439T67 354T35 230ZM116 230Q116 278 136 315T192 374T273 395Q318 395 353 374T409 316T430 230Q430 182 410
145T354 87T273 65Q228 65 193 86T137 145T116 230ZM440 500L50 -24L95 -44L485 480L440 500Z" />
<glyph unicode="&#xf9;" horiz-adv-x="525" d="M370 0H450V460H370V0ZM155 180V460H75V170Q75 81 118 36T233 -10Q281 -10 320 15T382 82T406 180H370Q370 147 356 121T315 80T253 65Q204 65 180 94T155 180ZM142 700L322 550L368 580L218 740L142 700Z" />
<glyph unicode="&#xfa;" horiz-adv-x="525" d="M370 0H450V460H370V0ZM155 180V460H75V170Q75 81 118 36T233 -10Q281 -10 320 15T382 82T406 180H370Q370 147 356 121T315 80T253 65Q204 65 180 94T155 180ZM382 700L308 740L158 580L202 550L382 700Z" />
<glyph unicode="&#xfb;" horiz-adv-x="525" d="M370 0H450V460H370V0ZM155 180V460H75V170Q75 81 118 36T233 -10Q281 -10 320 15T382 82T406 180H370Q370 147 356 121T315 80T253 65Q204 65 180 94T155 180ZM262 645L372 550L422 590L262 730L102 590L152 550L262 645Z" />
<glyph unicode="&#xfc;" horiz-adv-x="525" d="M370 0H450V460H370V0ZM155 180V460H75V170Q75 81 118 36T233 -10Q281 -10 320 15T382 82T406 180H370Q370 147 356 121T315 80T253 65Q204 65 180 94T155 180ZM308 605Q308 583 324 567T362 550Q385 550 401 566T418
605Q418 628 402 644T362 660Q340 660 324 644T308 605ZM108 605Q108 583 124 567T162 550Q185 550 201 566T218 605Q218 628 202 644T162 660Q140 660 124 644T108 605Z" />
<glyph unicode="&#xfd;" horiz-adv-x="440" d="M440 460H350L208 104L241 100L95 460H0L176 65L50 -220H140L440 460ZM350 700L275 740L125 580L170 550L350 700Z" />
<glyph unicode="&#xfe;" horiz-adv-x="570" d="M150 -220V780H70V-220H150ZM535 230Q535 305 504 358T422 441T307 470Q250 470 207 441T139 359T114 230Q114 156 138 102T206 19T307 -10Q370 -10 421 19T504 102T535 230ZM454 230Q454 177 433 140T376 84T297
65Q262 65 228 84T172 140T150 230Q150 283 172 320T228 376T297 395Q340 395 375 376T432 320T454 230Z" />
<glyph unicode="&#xff;" horiz-adv-x="440" d="M440 460H350L208 104L241 100L95 460H0L176 65L50 -220H140L440 460ZM265 585Q265 563 281 547T320 530Q343 530 359 546T375 585Q375 608 359 624T320 640Q298 640 282 624T265 585ZM65 585Q65 563 81 547T120
530Q143 530 159 546T175 585Q175 608 159 624T120 640Q98 640 82 624T65 585Z" />
<glyph unicode="&#x2013;" horiz-adv-x="740" d="M70 200H670V275H70V200Z" />
<glyph unicode="&#x2014;" horiz-adv-x="890" d="M70 200H820V275H70V200Z" />
<glyph unicode="&#x2018;" horiz-adv-x="275" d="M165 470L225 700H170L70 470H165Z" />
<glyph unicode="&#x2019;" horiz-adv-x="275" d="M110 700L50 470H105L205 700H110Z" />
<glyph unicode="&#x201a;" horiz-adv-x="275" d="M120 80L60 -150H115L215 80H120Z" />
<glyph unicode="&#x201c;" horiz-adv-x="475" d="M165 470L225 700H170L70 470H165ZM365 470L425 700H370L270 470H365Z" />
<glyph unicode="&#x201d;" horiz-adv-x="475" d="M110 700L50 470H105L205 700H110ZM310 700L250 470H305L405 700H310Z" />
<glyph unicode="&#x201e;" horiz-adv-x="475" d="M110 80L50 -150H105L205 80H110ZM310 80L250 -150H305L405 80H310Z" />
<glyph unicode="&#x2022;" horiz-adv-x="300" d="M95 415Q95 393 111 377T150 360Q173 360 189 376T205 415Q205 438 189 454T150 470Q128 470 112 454T95 415Z" />
<glyph unicode="&#x2039;" horiz-adv-x="350" d="M130 259L280 445L230 490L40 255L230 20L280 65L130 259Z" />
<glyph unicode="&#x203a;" horiz-adv-x="350" d="M220 251L70 65L120 20L310 255L120 490L70 445L220 251Z" />
</font>
</defs>
</svg>
